+ Reply to Thread
Results 1 to 1 of 1

Aatishbaazi Ishq 2016 1GB 720p HD-Rip X264 AC-3 [XMR]

  1. #1
    MobiMalik is offline I've Been Permanently Banned
    Country:
    This Is MobiMalik's Country Flag

    Join Date
    Nov 2016
    Posts
    511
    Thanks
    0
    Thanked 56 Times in 46 Posts
    Rep Power
    0

    Wink Aatishbaazi Ishq 2016 1GB 720p HD-Rip X264 AC-3 [XMR]



    Format                      : Matroska
    Format version              : Version 2
    File size                   : 1 014 MiB
    Duration                    : 2 h 25 min
    Overall bit rate            : 972 kb/s
    
    Video
    ID                          : 1
    Format                      : AVC
    Format/Info                 : Advanced Video Codec
    Format profile              : [email protected]
    Format settings, CABAC      : Yes
    Format settings, ReFrames   : 4 frames
    Codec ID                    : V_MPEG4/ISO/AVC
    Duration                    : 2 h 25 min
    Bit rate                    : 850 kb/s
    Width                       : 1 280 pixels
    Height                      : 536 pixels
    Display aspect ratio        : 2.40:1
    Frame rate mode             : Constant
    Frame rate                  : 24.000 FPS
    Color space                 : YUV
    Chroma subsampling          : 4:2:0
    Bit depth                   : 8 bits
    Scan type                   : Progressive
    Bits/(Pixel*Frame)          : 0.052
    Stream size                 : 878 MiB (87%)
    Audio
    ID                          : 2
    Format                      : AC-3
    Format/Info                 : Audio Coding 3
    Mode extension              : CM (complete main)
    Format settings, Endianness : Big
    Codec ID                    : A_AC3
    Duration                    : 2 h 25 min
    Bit rate mode               : Constant
    Bit rate                    : 128 kb/s
    Channel(s)                  : 2 channels
    Channel positions           : Front: L R
    Sampling rate               : 44.1 kHz
    Frame rate                  : 28.711 FPS (1536 spf)
    Compression mode            : Lossy
    Stream size                 : 133 MiB (13%)
    Language                    : Panjabi










    Download Link


    RapidPaid

    http://rapidpaid.com/54d6451f08e5b722/Aatishbaazi_Ishq_2016_1GB_720p_HD-Rip_X264_AC-3_[XMR].mkv
    FileUD

    http://fileud.com/355a629ac3245e4f/Aatishbaazi_Ishq_2016_1GB_720p_HD-Rip_X264_AC-3_[XMR].mkv
    RapidGator

    http://rapidgator.net/file/f2acc9ff5f9d392820c39a4971d7ff80/Aatishbaazi_Ishq_2016_1GB_720p_HD-Rip_X264_AC-3_[XMR].mkv.html



  2. The Following User Says Thank You to MobiMalik For This Useful Post:


+ Reply to Thread

Similar Threads

  1. Aatishbaazi Ishq (2016) 1GB 720p HD-Rip X264 AC-3 [XMR]
    By The RocKeY in forum Punjabi Movies
    Replies: 0
    Last Post: 12-14-2016, 11:39 AM
  2. Ishq.Click.2016.Hindi.720p.WEB-HD.x264.AC3
    By Shahana in forum Hindi Movies - DVDRips
    Replies: 0
    Last Post: 11-27-2016, 12:00 PM
  3. Daawat-E-Ishq Title Song - Daawat-E-Ishq (2014) Video Song HD 720p
    By thewall81317 in forum Hindi Video Songs
    Replies: 0
    Last Post: 07-18-2014, 08:18 AM

Posting Permissions

  • You may not post new threads
  • You may not post replies
  • You may not post attachments
  • You may not edit your posts

Disclaimer: This site does not store any files on its server. All contents are provided by non-affiliated third parties.