Format                      : Matroska
Format version              : Version 2
File size                   : 1 014 MiB
Duration                    : 2 h 25 min
Overall bit rate            : 972 kb/s

Video
ID                          : 1
Format                      : AVC
Format/Info                 : Advanced Video Codec
Format profile              : High@L3.1
Format settings, CABAC      : Yes
Format settings, ReFrames   : 4 frames
Codec ID                    : V_MPEG4/ISO/AVC
Duration                    : 2 h 25 min
Bit rate                    : 850 kb/s
Width                       : 1 280 pixels
Height                      : 536 pixels
Display aspect ratio        : 2.40:1
Frame rate mode             : Constant
Frame rate                  : 24.000 FPS
Color space                 : YUV
Chroma subsampling          : 4:2:0
Bit depth                   : 8 bits
Scan type                   : Progressive
Bits/(Pixel*Frame)          : 0.052
Stream size                 : 878 MiB (87%)
Audio
ID                          : 2
Format                      : AC-3
Format/Info                 : Audio Coding 3
Mode extension              : CM (complete main)
Format settings, Endianness : Big
Codec ID                    : A_AC3
Duration                    : 2 h 25 min
Bit rate mode               : Constant
Bit rate                    : 128 kb/s
Channel(s)                  : 2 channels
Channel positions           : Front: L R
Sampling rate               : 44.1 kHz
Frame rate                  : 28.711 FPS (1536 spf)
Compression mode            : Lossy
Stream size                 : 133 MiB (13%)
Language                    : Panjabi


















http://rapidgator.net/file/f0872e9c2c19a1e7257e8bc50f42859f/Aatishbaazi_Ishq_2016_1GB_720p_HD-Rip_X264_AC-3_[XMR].mkv.html
http://nitroflare.com/view/DDD51001D1523C2/Aatishbaazi_Ishq_2016_1GB_720p_HD-Rip_X264_AC-3__XMR_.mkv
https://openload.co/f/AScnLPFDBTo/Aatishbaazi_Ishq_2016_1GB_720p_HD-Rip_X264_AC-3_%5BXMR%5D.mkv