General
Complete name               : 25.Kille.2016.1080p.WEB-DL.H264.AC3.ESub-DDR.mkv
Format                      : Matroska
Format version              : Version 4 / Version 2
File size                   : 5.12 GiB
Duration                    : 2h 19mn
Overall bit rate            : 5 250 Kbps
Encoded date                : UTC 2016-12-11 19:58:45
Writing application         : mkvmerge v9.5.0 ('Quiet Fire') 64bit
Writing library             : libebml v1.3.4 + libmatroska v1.4.5

Video
ID                          : 1
Format                      : AVC
Format/Info                 : Advanced Video Codec
Format profile              : [email protected]
Format settings, CABAC      : Yes
Format settings, ReFrames   : 5 frames
Codec ID                    : V_MPEG4/ISO/AVC
Duration                    : 2h 19mn
Bit rate                    : 4 737 Kbps
Width                       : 1 920 pixels
Height                      : 816 pixels
Display aspect ratio        : 2.35:1
Frame rate mode             : Constant
Frame rate                  : 24.000 fps
Color space                 : YUV
Chroma subsampling          : 4:2:0
Bit depth                   : 8 bits
Scan type                   : Progressive
Bits/(Pixel*Frame)          : 0.126
Stream size                 : 4.62 GiB (90%)
Default                     : Yes
Forced                      : No
Color range                 : Limited
Color primaries             : BT.709
Transfer characteristics    : BT.709
Matrix coefficients         : BT.709

Audio #1
ID                          : 2
Format                      : AC-3
Format/Info                 : Audio Coding 3
Mode extension              : CM (complete main)
Format settings, Endianness : Big
Codec ID                    : A_AC3
Duration                    : 2h 19mn
Bit rate mode               : Constant
Bit rate                    : 384 Kbps
Channel(s)                  : 6 channels
Channel positions           : Front: L C R, Side: L R, LFE
Sampling rate               : 48.0 KHz
Frame rate                  : 31.250 fps (1536 spf)
Compression mode            : Lossy
Stream size                 : 384 MiB (7%)
Language                    : Panjabi
Default                     : Yes
Forced                      : No

Audio #2
ID                          : 3
Format                      : AAC
Format/Info                 : Advanced Audio Codec
Format profile              : LC
Codec ID                    : A_AAC
Duration                    : 2h 19mn
Bit rate                    : 126 Kbps
Channel(s)                  : 2 channels
Channel positions           : Front: L R
Sampling rate               : 48.0 KHz
Frame rate                  : 46.875 fps (1024 spf)
Compression mode            : Lossy
Stream size                 : 126 MiB (2%)
Language                    : Panjabi
Default                     : No
Forced                      : No

Text
ID                          : 4
Format                      : UTF-8
Codec ID                    : S_TEXT/UTF8
Codec ID/Info               : UTF-8 Plain Text
Duration                    : 2h 18mn
Bit rate                    : 76 bps
Count of elements           : 2199
Stream size                 : 77.3 KiB (0%)
Language                    : English
Default                     : Yes
Forced                      : No

Menu
00:00:00.000                : en:1
00:00:53.875                : en:2
00:15:09.125                : en:3
01:02:06.666                : en:4
01:14:58.457                : en:5
01:53:45.665                : en:6
01:58:31.206                : en:7
02:17:53.581                : en:8














http://nitroflare.com/view/1310F7998637822/25.Kille.2016.1080p.WEB-DL.H264.AC3.ESub-DDR.mkv

Subs:
http://nitroflare.com/view/99815FB93B1C9C6/25.Kille.2016.1080p.WEB-DL.H264.AC3.ESub-DDR.srt