+ Reply to Thread
Results 1 to 1 of 1

Gelo (2016) [Punjabi] 720p Web-HD AVC AAC Esub - Hon3y

  1. #1
    Hon3y's Avatar
    Hon3y is offline Where Speed & Quality Matters

    Join Date
    Dec 2016
    Posts
    311
    Thanks
    0
    Thanked 207 Times in 121 Posts
    My Mood
    Happy
    Rep Power
    7

    Gelo (2016) [Punjabi] 720p Web-HD AVC AAC Esub - Hon3y

    Gelo (2016) [Punjabi] 720p Web-HD AVC AAC Esub - Hon3y

    Format : Matroska
    File size : 2.32 GiB
    Duration : 1 h 57 min
    Overall bit rate : 2 822 kb/s

    Video
    ID : 1
    Format : AVC
    Format/Info : Advanced Video Codec
    Format profile : [email protected]
    Format settings, CABAC : Yes
    Format settings, ReFrames : 3 frames
    Codec ID : V_MPEG4/ISO/AVC
    Duration : 1 h 57 min
    Bit rate : 2 692 kb/s
    Width : 1 280 pixels
    Height : 566 pixels
    Display aspect ratio : 2.25:1
    Frame rate mode : Constant
    Frame rate : 25.000 FPS
    Stream size : 2.22 GiB (95%)

    Audio
    ID : 2
    Format : AAC
    Format/Info : Advanced Audio Codec
    Format profile : LC
    Codec ID : A_AAC
    Duration : 1 h 57 min
    Bit rate : 127 kb/s
    Channel(s) : 2 channels
    Channel positions : Front: L R
    Sampling rate : 44.1 kHz
    Frame rate : 43.066 FPS (1024 spf)
    Stream size : 107 MiB (5%)



+ Reply to Thread

Similar Threads

  1. Punjab 1984 (2014) [Punjabi] 720p Web-HD AVC AAC Esub - Hon3y
    By Hon3y in forum Encoders/Uploaders :: Hindi Movies
    Replies: 0
    Last Post: 05-17-2017, 09:52 AM
  2. Sardaar Ji (2015) [Punjabi] 720p Web-HD AVC AAC Esub - Hon3y
    By Hon3y in forum Encoders/Uploaders :: Hindi Movies
    Replies: 0
    Last Post: 05-17-2017, 09:46 AM
  3. Eh Janam Tumhare Lekhe (2015) [Punjabi] 720p Web-HD AVC AAC Esub - Hon3y
    By Hon3y in forum Encoders/Uploaders :: Hindi Movies
    Replies: 0
    Last Post: 05-16-2017, 12:21 PM
  4. Gelo (2016) 1080p Untouched WEBHD AVC AAC ESub [DDR Exclusive]
    By SONYZ in forum HD, DVD5, Upscaled, Blu-Ray Movies
    Replies: 0
    Last Post: 05-04-2017, 11:34 PM
  5. Ardaas 2016 (Punjabi) 720p DVDRip x264 AC3 5.1 - Hon3y
    By MAAXHD in forum Punjabi Movies
    Replies: 1
    Last Post: 12-05-2016, 06:09 PM

Posting Permissions

  • You may not post new threads
  • You may not post replies
  • You may not post attachments
  • You may not edit your posts

Disclaimer: This site does not store any files on its server. All contents are provided by non-affiliated third parties.