+ Reply to Thread
Results 1 to 1 of 1

Bhouri 2016 Hindi 720p Web-HD AVC AAC Esub - Hon3y [Exclusive]

  1. #1
    Hon3y's Avatar
    Hon3y is offline Where Speed & Quality Matters

    Join Date
    Dec 2016
    Posts
    311
    Thanks
    0
    Thanked 207 Times in 121 Posts
    My Mood
    Happy
    Rep Power
    7

    Bhouri 2016 Hindi 720p Web-HD AVC AAC Esub - Hon3y [Exclusive]

    Bhouri (2016) [Hindi] 720p Untouched Web-HD AVC AAC Esub - Hon3yHD [Exclusive]



    Format : Matroska
    File size : 2.78 GiB
    Duration : 2 h 20 min
    Overall bit rate : 2 825 kb/s

    Video
    ID : 1
    Format : AVC
    Format/Info : Advanced Video Codec
    Format profile : [email protected]
    Format settings, CABAC : No
    Format settings, ReFrames : 1 frame
    Codec ID : V_MPEG4/ISO/AVC
    Duration : 2 h 20 min
    Bit rate : 2 695 kb/s
    Width : 1 280 pixels
    Height : 544 pixels
    Display aspect ratio : 2.35:1
    Frame rate mode : Constant
    Frame rate : 24.000 FPS
    Stream size : 2.65 GiB (95%)

    Audio
    ID : 2
    Format : AAC
    Format/Info : Advanced Audio Codec
    Format profile : LC
    Codec ID : A_AAC
    Duration : 2 h 20 min
    Bit rate : 128 kb/s
    Channel(s) : 2 channels
    Channel positions : Front: L R
    Sampling rate : 44.1 kHz
    Frame rate : 43.066 FPS (1024 spf)
    Stream size : 129 MiB (5%)




+ Reply to Thread

Similar Threads

  1. The Ghazi Attack (2017) Hindi 720p BluRay x264 AC3 5.1 Esub - Hon3y [Exclusive]
    By Hon3y in forum Encoders/Uploaders :: Hindi Movies
    Replies: 0
    Last Post: 04-29-2017, 07:44 AM
  2. Akira 2016 Hindi 720p BluRay x264 AC3 5.1 - Hon3y [Exclusive]
    By MAAXHD in forum Encoders/Uploaders :: Hindi Movies
    Replies: 0
    Last Post: 01-03-2017, 01:33 PM
  3. Pink 2016 Hindi 1080p BluRay DTS x264 5 1 Esub - Hon3y Exclusive
    By cutem4n8 in forum DVDR, HD, BluRay, 720p, 1080p Movies
    Replies: 0
    Last Post: 11-11-2016, 02:25 AM
  4. Housefull 3 2016 Hindi 720p BluRay x264 AAC 5.1 - Hon3y [Exclusive]
    By [MAX] in forum Encoders/Uploaders :: Hindi Movies
    Replies: 2
    Last Post: 10-06-2016, 10:04 PM
  5. Sarbjit 2016 Hindi 720p BluRay x264 AC3 5.1 - Hon3y [Exclusive]
    By MAAXHD in forum HD, DVD5, Upscaled, Blu-Ray Movies
    Replies: 0
    Last Post: 08-11-2016, 05:40 PM

Posting Permissions

  • You may not post new threads
  • You may not post replies
  • You may not post attachments
  • You may not edit your posts

Disclaimer: This site does not store any files on its server. All contents are provided by non-affiliated third parties.