+ Reply to Thread
Results 1 to 4 of 4

Wajah Tum Ho 2016 Language Hindi WebHD 1088 Pixels MPEG-4 Ac3 Esub DDR

  1. #1
    Unicc_Supplier is offline
    Country:
    This Is Unicc_Supplier's Country Flag

    Join Date
    Nov 2016
    Posts
    422
    Thanks
    0
    Thanked 44 Times in 36 Posts
    Rep Power
    9

    Wink Wajah Tum Ho 2016 Language Hindi WebHD 1088 Pixels MPEG-4 Ac3 Esub DDR




    ~ wajah.tum.ho ~

    ** webhd / h.263 / ac3 5.1 / esubs **

    note: cooking 1080p may be i will release 20mmro those who want HD they can wait and yes audio is original 5.1 included with english subs





    General
    Complete name                            : wajah.tum.ho.2016.webhd.mpeg.ac3.esub.ddr.mkv
    Format                                   : Matroska
    Format version                           : Version 4 / Version 2
    File size                                : 3.11 GiB
    Duration                                 : 2 h 10 min
    Overall bit rate                         : 3 405 kb/s
    Encoded date                             : UTC 2017-01-10 10:32:04
    
    Video
    ID                                       : 1
    Format                                   : MPEG-4 Visual
    Format profile                           : [email protected]
    Format settings, BVOP                    : No
    Format settings, QPel                    : No
    Format settings, GMC                     : No warppoints
    Format settings, Matrix                  : Default (H.263)
    Codec ID                                 : V_MPEG4/ISO/ASP
    Codec ID/Info                            : Advanced Simple Profile
    Duration                                 : 2 h 10 min
    Bit rate                                 : 3 019 kb/s
    Width                                    : 1 088 pixels
    Height                                   : 464 pixels
    Display aspect ratio                     : 2.35:1
    Frame rate mode                          : Constant
    Frame rate                               : 25.000 FPS
    Color space                              : YUV
    Chroma subsampling                       : 4:2:0
    Bit depth                                : 8 bits
    Scan type                                : Progressive
    Compression mode                         : Lossy
    Bits/(Pixel*Frame)                       : 0.239
    Stream size                              : 2.76 GiB (89%)
    Title                                    : DDR
    Writing library                          : Lavc55.52.102
    Default                                  : Yes
    Forced                                   : No
    
    Audio
    ID                                       : 2
    Format                                   : AC-3
    Format/Info                              : Audio Coding 3
    Mode extension                           : CM (complete main)
    Format settings, Endianness              : Big
    Codec ID                                 : A_AC3
    Duration                                 : 2 h 10 min
    Bit rate mode                            : Constant
    Bit rate                                 : 384 kb/s
    Channel(s)                               : 6 channels
    Channel positions                        : Front: L C R, Side: L R, LFE
    Sampling rate                            : 48.0 kHz
    Frame rate                               : 31.250 FPS (1536 spf)
    Bit depth                                : 16 bits
    Compression mode                         : Lossy
    Delay relative to video                  : -21 ms
    Stream size                              : 359 MiB (11%)
    Title                                    : DDR
    Language                                 : Hindi
    Default                                  : Yes
    Forced                                   : No
    
    Text
    ID                                       : 3
    Format                                   : UTF-8
    Codec ID                                 : S_TEXT/UTF8
    Codec ID/Info                            : UTF-8 Plain Text
    Duration                                 : 2 h 7 min
    Bit rate                                 : 49 b/s
    Count of elements                        : 1470
    Stream size                              : 46.3 KiB (0%)
    Title                                    : DDR
    Language                                 : English
    Default                                  : Yes
    Forced                                   : No























    Download Link

    http://rapidpaid.com/73adec87c26fad16/Wajah_Tum_Ho_2016_Language_Hindi_WebHD_1088_pixelsMPEG-4_Ac3_Esub_DDR.mkv
    http://fileud.com/8988a8d6b3745778/Wajah_Tum_Ho_2016_Language_Hindi_WebHD_1088_pixelsMPEG-4_Ac3_Esub_DDR.mkv
    http://rg.to/file/64d3bca811cdbd8455c80a214ee7b337/Wajah_Tum_Ho_2016_Language_Hindi_WebHD_1088_pixelsMPEG-4_Ac3_Esub_DDR.mkv.html

  2. #2
    SONYZ is offline
    Country:
    This Is SONYZ's Country Flag

    Join Date
    Dec 2016
    Posts
    53
    Thanks
    0
    Thanked 0 Times in 0 Posts
    Rep Power
    2
    Thanks

  3. #3
    adishu is offline
    Country:
    This Is adishu's Country Flag

    Join Date
    Jan 2017
    Posts
    2
    Thanks
    0
    Thanked 0 Times in 0 Posts
    Rep Power
    0
    please upload the torrent file for wajah tum ho

  4. #4
    nahinamin is offline
    Country:
    This Is nahinamin's Country Flag

    Join Date
    Oct 2013
    Posts
    38
    Thanks
    0
    Thanked 0 Times in 0 Posts
    Rep Power
    4
    thanks....

+ Reply to Thread

Similar Threads

  1. Baar Baar Dekho 2016 720p WebHD Language Hindi x264 AC3-WeTv
    By Unicc_Supplier in forum HD, DVD5, Upscaled, Blu-Ray Movies
    Replies: 0
    Last Post: 01-03-2017, 02:46 PM
  2. Kabali (2016) Hindi 1080p Untouched WEBHD AVC AAC ESub [DDR]
    By wroser in forum HD, DVD5, Upscaled, Blu-Ray Movies
    Replies: 1
    Last Post: 01-01-2017, 04:17 AM
  3. Dictator 2016 Hindi WEBHD Untouched 1080p Esub - Exclusive
    By kamran444 in forum HD, DVD5, Upscaled, Blu-Ray Movies
    Replies: 1
    Last Post: 11-20-2016, 03:33 PM
  4. Kabali 2016 Hindi 1080p WEBHD Rip x264 AAC 2.1 ESub 2GB - MAZE
    By kamran444 in forum HD, DVD5, Upscaled, Blu-Ray Movies
    Replies: 0
    Last Post: 11-02-2016, 05:33 AM
  5. Kabali 2016 720p WebHD AVC AAC ESub - WeTv Language Hindi
    By R3hman in forum Hindi Movies - DVDRips
    Replies: 0
    Last Post: 10-30-2016, 07:04 PM

Posting Permissions

  • You may not post new threads
  • You may not post replies
  • You may not post attachments
  • You may not edit your posts

Disclaimer: This site does not store any files on its server. All contents are provided by non-affiliated third parties.