+ Reply to Thread
Results 1 to 2 of 2

Dictator 2016 Hindi WEBHD Untouched 1080p Esub - Exclusive

  1. #1
    kamran444 is offline
    Country:
    This Is kamran444's Country Flag

    Join Date
    Aug 2010
    Posts
    10,383
    Thanks
    33
    Thanked 1,605 Times in 919 Posts
    Rep Power
    214

    Dictator 2016 Hindi WEBHD Untouched 1080p Esub - Exclusive

    Dictator 2016 Hindi WEBHD Untouched 1080p Esub - Exclusive







    Format : Matroska
    File size : 6.18 GiB
    Duration : 2 h 26 min
    Overall bit rate : 6 059 kb/s

    Video
    ID : 1
    Format : AVC
    Format/Info : Advanced Video Codec
    Format profile : [email protected]
    Format settings, CABAC : Yes
    Format settings, ReFrames : 4 frames
    Format settings, GOP : M=4, N=30
    Codec ID : V_MPEG4/ISO/AVC
    Duration : 2 h 26 min
    Bit rate : 5 873 kb/s
    Width : 1 920 pixels
    Height : 1 080 pixels
    Display aspect ratio : 16:9
    Frame rate mode : Constant
    Frame rate : 25.000 FPS
    Stream size : 5.98 GiB (97%)

    Audio
    ID : 2
    Format : AAC
    Format/Info : Advanced Audio Codec
    Format profile : LC
    Codec ID : A_AAC
    Duration : 2 h 26 min
    Bit rate : 192 kb/s
    Channel(s) : 2 channels
    Channel positions : Front: L R
    Sampling rate : 48.0 kHz
    Frame rate : 46.875 FPS (1024 spf)
    Stream size : 203 MiB (3%)
    Language : Hindi

    www.imdb.com/title/tt5304086/














    Single Link

    http://nitroflare.com/view/D2A6AEBF1B54EB1/Dictator.Yudh.Ek.Jung.2016.Hindi.WEBHD.Untouched.1080p.Esub.HHD.mkv


    1GB Link



    http://nitroflare.com/view/A3773632547B394/Dictator.Yudh.Ek.Jung.2016.Hindi.WEBHD.Untouched.1080p.Esub.HHD.part1.rar
    http://nitroflare.com/view/5B69156E28032A6/Dictator.Yudh.Ek.Jung.2016.Hindi.WEBHD.Untouched.1080p.Esub.HHD.part2.rar
    http://nitroflare.com/view/ADDA97A215B09E5/Dictator.Yudh.Ek.Jung.2016.Hindi.WEBHD.Untouched.1080p.Esub.HHD.part3.rar
    http://nitroflare.com/view/9584BD434C06ACE/Dictator.Yudh.Ek.Jung.2016.Hindi.WEBHD.Untouched.1080p.Esub.HHD.part4.rar
    http://nitroflare.com/view/AB5B8A9EC13D1F4/Dictator.Yudh.Ek.Jung.2016.Hindi.WEBHD.Untouched.1080p.Esub.HHD.part5.rar
    http://nitroflare.com/view/B63204B4BB67258/Dictator.Yudh.Ek.Jung.2016.Hindi.WEBHD.Untouched.1080p.Esub.HHD.part6.rar
    http://nitroflare.com/view/83500DC06D314FC/Dictator.Yudh.Ek.Jung.2016.Hindi.WEBHD.Untouched.1080p.Esub.HHD.part7.rar




    http://rapidgator.net/file/8a0c537d2c0bf369b72c0ec9af38f33a/Dictator.Yudh.Ek.Jung.2016.Hindi.WEBHD.Untouched.1080p.Esub.HHD.part1.rar.html
    http://rapidgator.net/file/334eb703058822c2917fca0203d11e1d/Dictator.Yudh.Ek.Jung.2016.Hindi.WEBHD.Untouched.1080p.Esub.HHD.part2.rar.html
    http://rapidgator.net/file/8db96ba4a7af5258d5571f0652b4e0db/Dictator.Yudh.Ek.Jung.2016.Hindi.WEBHD.Untouched.1080p.Esub.HHD.part3.rar.html
    http://rapidgator.net/file/a4ca48134168b2ebc2ec7e6e20c80408/Dictator.Yudh.Ek.Jung.2016.Hindi.WEBHD.Untouched.1080p.Esub.HHD.part4.rar.html
    http://rapidgator.net/file/33111d524038420ebf71d03a21a6377f/Dictator.Yudh.Ek.Jung.2016.Hindi.WEBHD.Untouched.1080p.Esub.HHD.part5.rar.html
    http://rapidgator.net/file/35c1c0b0ee1104a73f88fcb865bebf4e/Dictator.Yudh.Ek.Jung.2016.Hindi.WEBHD.Untouched.1080p.Esub.HHD.part6.rar.html
    http://rapidgator.net/file/e244ce357e941ebc1710d064f2fafdf9/Dictator.Yudh.Ek.Jung.2016.Hindi.WEBHD.Untouched.1080p.Esub.HHD.part7.rar.html
    http://rapidgator.net/file/f54d890a5090da7688be01edf00318fc/Dictator.Yudh.Ek.Jung.2016.Hindi.WEBHD.Untouched.1080p.Esub.HHD.srt.html

  2. #2
    Blue_Star is offline
    Country:
    This Is Blue_Star's Country Flag

    Join Date
    Aug 2015
    Posts
    2
    Thanks
    0
    Thanked 0 Times in 0 Posts
    Rep Power
    0
    Please upload or give link to its 720p version. Thanks in advance.

+ Reply to Thread

Similar Threads

  1. Replies: 1
    Last Post: 11-20-2016, 03:34 PM
  2. Fever (2016) 1080p Untouched WEBHD AVC AAC ESub [DDR Exclusive]
    By wroser in forum HD, DVD5, Upscaled, Blu-Ray Movies
    Replies: 0
    Last Post: 10-07-2016, 01:17 PM
  3. Fever (2016) 1080p Untouched WEBHD AVC AAC ESub [DDR Exclusive]
    By R3hman in forum HD, DVD5, Upscaled, Blu-Ray Movies
    Replies: 0
    Last Post: 10-07-2016, 01:12 PM
  4. Chudail Story (2016) 1080p Untouched WEBHD AVC AAC ESub [DDR Exclusive]
    By The RocKeY in forum HD, DVD5, Upscaled, Blu-Ray Movies
    Replies: 0
    Last Post: 07-24-2016, 04:54 AM
  5. Replies: 0
    Last Post: 03-06-2016, 03:20 PM

Posting Permissions

  • You may not post new threads
  • You may not post replies
  • You may not post attachments
  • You may not edit your posts

Disclaimer: This site does not store any files on its server. All contents are provided by non-affiliated third parties.