+ Reply to Thread
Results 1 to 1 of 1

xXx Return of Xander Cage 2017 BluRay 1080p x264 [Hindi-English] DD 5.1 -Hon3y

  1. #1
    Hon3y's Avatar
    Hon3y is offline Where Speed & Quality Matters

    Join Date
    Dec 2016
    Posts
    311
    Thanks
    0
    Thanked 207 Times in 121 Posts
    My Mood
    Happy
    Rep Power
    7

    xXx Return of Xander Cage 2017 BluRay 1080p x264 [Hindi-English] DD 5.1 -Hon3y


    xXx Return of Xander Cage (2017) BluRay 1080p x264 Dual Audio [Hindi-English] DD 5.1 ESubs...Hon3y

    General
    Format : Matroska
    Format version : Version 4 / Version 2
    File size : 4.53 GiB
    Duration : 1 h 46 min
    Overall bit rate : 6 071 kb/s
    Movie name : xXx Return of Xander [email protected]

    Video
    Format : AVC
    Format/Info : Advanced Video Codec
    Format profile : [email protected]
    Format settings, CABAC : Yes
    Format settings, ReFrames : 5 frames
    Codec ID : V_MPEG4/ISO/AVC
    Duration : 1 h 46 min
    Bit rate : 4 955 kb/s
    Width : 1 920 pixels
    Height : 800 pixels
    Display aspect ratio : 2.40:1
    Frame rate mode : Constant
    Frame rate : 23.976 (24000/1001) FPS
    Color space : YUV
    Chroma subsampling : 4:2:0
    Bit depth : 8 bits
    Scan type : Progressive
    Bits/(Pixel*Frame) : 0.135
    Stream size : 3.69 GiB (82%)
    Title : xXx Return of Xander [email protected]

    Hindi Audio Credits : Invincible Rajat... Thanks

    Audio
    Format : AC-3
    Format/Info : Audio Coding 3
    Format settings, Endianness : Big
    Codec ID : A_AC3
    Duration : 1 h 46 min
    Bit rate mode : Constant
    Bit rate : 640 kb/s
    Channel(s) : 6 channels
    Channel positions : Front: L C R, Side: L R, LFE
    Sampling rate : 48.0 kHz
    Frame rate : 31.250 FPS (1536 spf)
    Bit depth : 16 bits
    Compression mode : Lossy
    Stream size : 489 MiB (11%)
    Title : [email protected]
    Language : Hindi
    Service kind : Complete Main
    Default : Yes

    Audio 2
    Format : AC-3
    Format/Info : Audio Coding 3
    Format settings, Endianness : Big
    Codec ID : A_AC3
    Duration : 1 h 46 min
    Bit rate mode : Constant
    Bit rate : 448 kb/s
    Channel(s) : 6 channels
    Channel positions : Front: L C R, Side: L R, LFE
    Sampling rate : 48.0 kHz
    Frame rate : 31.250 FPS (1536 spf)
    Bit depth : 16 bits
    Compression mode : Lossy
    Stream size : 342 MiB (7%)
    Title : [email protected]
    Service kind : Complete Main
    Default : No

    Subtitle
    Format : PGS
    Muxing mode : zlib
    Codec ID : S_HDMV/PGS
    Codec ID/Info : Picture based subtitle format used on BDs/HD-DVDs
    Duration : 1 h 43 min
    Bit rate : 8 545 b/s
    Count of elements : 2283
    Stream size : 6.30 MiB (0%)
    Title : Hindi [email protected]
    Language : Hindi
    Default : No

    Subtitle
    Format : PGS
    Muxing mode : zlib
    Codec ID : S_HDMV/PGS
    Codec ID/Info : Picture based subtitle format used on BDs/HD-DVDs
    Duration : 1 h 36 min
    Bit rate : 9 615 b/s
    Count of elements : 2259
    Stream size : 6.62 MiB (0%)
    Title : English [email protected]
    Language : English
    Default : Yes

    SubTitle SRT Format Included



+ Reply to Thread

Similar Threads

  1. Replies: 0
    Last Post: 05-03-2017, 05:38 PM
  2. Replies: 0
    Last Post: 05-03-2017, 01:32 PM
  3. xXx Return of Xander Cage (2017) Desi pre DvD Rip - X264 - Hindi + English
    By Unicc_Supplier in forum English Movies Dubbed in Hindi
    Replies: 0
    Last Post: 02-07-2017, 06:57 AM
  4. xXx Return of Xander Cage (2017) Desi pre DvD Rip X264 Hindi+English 1.5GB
    By AmazeForumm in forum English Movies Dubbed in Hindi
    Replies: 1
    Last Post: 01-28-2017, 10:04 AM
  5. xXx Return of Xander Cage (2017) Desi pre DvD Rip - X264 - Hindi+English
    By Unicc_Supplier in forum English Movies Dubbed in Hindi
    Replies: 0
    Last Post: 01-27-2017, 11:46 AM

Posting Permissions

  • You may not post new threads
  • You may not post replies
  • You may not post attachments
  • You may not edit your posts

Disclaimer: This site does not store any files on its server. All contents are provided by non-affiliated third parties.