+ Reply to Thread
Results 1 to 4 of 4

X-Men Apocalypse (2016) 720p BluRay x264 [Dual-Audio][Eng DD5.1+Hin DD5.1] - Mafiakin

  1. #1
    R3hman is offline I've Been Permanently Banned
    Country:
    This Is R3hman's Country Flag

    Join Date
    Jun 2015
    Posts
    1,717
    Thanks
    3
    Thanked 359 Times in 280 Posts
    My Mood
    Cool
    Rep Power
    0

    Wink X-Men Apocalypse (2016) 720p BluRay x264 [Dual-Audio][Eng DD5.1+Hin DD5.1] - Mafiakin









    Ratings: 7.3/10
    
    Genere: Action, Adventure, Sci-Fi 
    
    General
    Unique ID : 213573539306612238988711808348115759734 (0xA0ACC478C759A535AB21C003CC48F276)
    Complete name : X-Men Apocalypse (2016) 720p BluRay x264 [Dual-Audio][Eng DD5.1+Hin DD5.1] - Mafiaking - M2Tv.mkv
    Format : Matroska
    Format version : Version 4 / Version 2
    File size : 1.36 GiB
    Duration : 2 h 23 min
    Overall bit rate : 1 349 kb/s
    Movie name : X-Men Apocalypse (2016) 720p BluRay x264 [Dual-Audio][Eng DD5.1+Hin DD5.1] - Mafiaking - M2Tv
    Encoded date : UTC 2016-09-14 07:10:42
    Writing application : mkvmerge v7.0.0 ('Where We Going') 32bit built on Jun 9 2014 15:08:34
    Writing library : libebml v1.3.0 + libmatroska v1.4.1
    
    Video
    ID : 1
    Format : AVC
    Format/Info : Advanced Video Codec
    Format profile : [email protected]
    Format settings, CABAC : Yes
    Format settings, ReFrames : 3 frames
    Codec ID : V_MPEG4/ISO/AVC
    Duration : 2 h 23 min
    Bit rate : 900 kb/s
    Width : 1 280 pixels
    Height : 536 pixels
    Display aspect ratio : 2.40:1
    Frame rate mode : Constant
    Frame rate : 23.976 (24000/1001) FPS
    Color space : YUV
    Chroma subsampling : 4:2:0
    Bit depth : 8 bits
    Scan type : Progressive
    Bits/(Pixel*Frame) : 0.055
    Stream size : 926 MiB (67%)
    Title : Mafiaking
    Language : English
    Default : Yes
    Forced : No
    
    Audio #1
    ID : 2
    Format : AC-3
    Format/Info : Audio Coding 3
    Mode extension : CM (complete main)
    Format settings, Endianness : Big
    Codec ID : A_AC3
    Duration : 2 h 23 min
    Bit rate mode : Constant
    Bit rate : 224 kb/s
    Channel(s) : 6 channels
    Channel positions : Front: L C R, Side: L R, LFE
    Sampling rate : 48.0 kHz
    Frame rate : 31.250 FPS (1536 spf)
    Compression mode : Lossy
    Stream size : 231 MiB (17%)
    Title : Mafiaking
    Language : Hindi
    Default : Yes
    Forced : No
    
    Audio #2
    ID : 3
    Format : AC-3
    Format/Info : Audio Coding 3
    Mode extension : CM (complete main)
    Format settings, Endianness : Big
    Codec ID : A_AC3
    Duration : 2 h 23 min
    Bit rate mode : Constant
    Bit rate : 224 kb/s
    Channel(s) : 6 channels
    Channel positions : Front: L C R, Side: L R, LFE
    Sampling rate : 48.0 kHz
    Frame rate : 31.250 FPS (1536 spf)
    Compression mode : Lossy
    Stream size : 231 MiB (17%)
    Title : Mafiaking
    Language : English
    Default : No
    Forced : No




    **To View Image In Full Size Click on Thumbnails**





















    Download Link

    http://rapidpaid.com/5466446a8dbe2057/X-Men_Apocalypse_(2016)_720p_BluRay_x264_[Dual-Audio][Eng_DD5.1+Hin_DD5.1]_-_Mafiakin.mkv

    [/CENTER]

  2. The Following User Says Thank You to R3hman For This Useful Post:


  3. #2
    TinkuMeena is offline
    Country:
    This Is TinkuMeena's Country Flag

    Join Date
    Sep 2016
    Posts
    1
    Thanks
    0
    Thanked 0 Times in 0 Posts
    Rep Power
    0
    Please upload it with openload.co link

  4. #3
    aliryk80 is offline
    Country:
    This Is aliryk80's Country Flag

    Join Date
    Dec 2014
    Posts
    1
    Thanks
    0
    Thanked 0 Times in 0 Posts
    Rep Power
    0
    Thanks

  5. #4
    MobiMalik is online now
    Country:
    This Is MobiMalik's Country Flag

    Join Date
    Nov 2016
    Posts
    459
    Thanks
    0
    Thanked 51 Times in 42 Posts
    Rep Power
    10
    thanks

+ Reply to Thread

Similar Threads

  1. Replies: 0
    Last Post: 09-12-2016, 06:07 PM
  2. Replies: 0
    Last Post: 09-11-2016, 06:28 PM
  3. Replies: 1
    Last Post: 06-07-2016, 12:49 AM
  4. Replies: 0
    Last Post: 06-06-2016, 07:09 AM
  5. Replies: 0
    Last Post: 03-12-2016, 01:19 AM

Posting Permissions

  • You may not post new threads
  • You may not post replies
  • You may not post attachments
  • You may not edit your posts

Disclaimer: This site does not store any files on its server. All contents are provided by non-affiliated third parties.