General 

Unique ID : 209734185538304993093619573147090888112 (0x9DC955B75A457B8B9DE74179FAAD25B0) 
Complete name : Edge Of Tomorrow (2014) 720p X 264 AC3 [English + Hindi ] Org.mkv 
Format : Matroska 
Format version : Version 4 / Version 2 
File size : 973 MiB 
Duration : 1 h 53 min 
Overall bit rate : 1 199 kb/s 


Video 

ID : 1 
Format : AVC 
Format/Info : Advanced Video Codec 
Format profile : [email protected] 
Format settings, CABAC : Yes 
Format settings, ReFrames : 5 frames 
Codec ID : V_MPEG4/ISO/AVC 
Duration : 1 h 53 min 
Bit rate : 750 kb/s 
Width : 1 280 pixels 
Height : 534 pixels 
Display aspect ratio : 2.40:1 
Frame rate mode : Constant 
Frame rate : 23.976 (24000/1001) FPS 
Color space : YUV 
Chroma subsampling : 4:2:0 
Bit depth : 8 bits 
Scan type : Progressive 
Bits/(Pixel*Frame) : 0.046 
Stream size : 590 MiB (61%) 
Writing library : x264 core 142 r2479 dd79a61 
Default : Yes 
Forced : No 
Color range : Limited 
Color primaries : BT.709 
Transfer characteristics : BT.709 
Matrix coefficients : BT.709 
 

Audio #1 

ID : 2 
Format : AC-3 
Format/Info : Audio Coding 3 
Mode extension : CM (complete main) 
Format settings, Endianness : Big 
Codec ID : A_AC3 
Duration : 1 h 53 min 
Bit rate mode : Constant 
Bit rate : 224 kb/s 
Channel(s) : 6 channels 
Channel positions : Front: L C R, Side: L R, LFE 
Sampling rate : 48.0 kHz 
Frame rate : 31.250 FPS (1536 spf) 
Compression mode : Lossy 
Delay relative to video : -5 ms 
Stream size : 182 MiB (19%) 
Title : Surround 
Default : Yes 
Forced : No 
 

Audio #2 

ID : 3 
Format : AC-3 
Format/Info : Audio Coding 3 
Mode extension : CM (complete main) 
Format settings, Endianness : Big 
Codec ID : A_AC3 
Duration : 1 h 53 min 
Bit rate mode : Constant 
Bit rate : 224 kb/s 
Channel(s) : 6 channels 
Channel positions : Front: L C R, Side: L R, LFE 
Sampling rate : 48.0 kHz 
Frame rate : 31.250 FPS (1536 spf) 
Compression mode : Lossy 
Delay relative to video : -83 ms 
Stream size : 182 MiB (19%) 
Default : No 
Forced : No 

__B!RoH!_MoN__










http://rg.to/file/58b772729a3b24b72e302aedd4a30783/Edge_Of_Tomorrow_(2014)_720p_X_264_AC3_[English___Hindi_]_Org_(1).mkv.html
http://www.arabloads.net/dwpe2h8jj0bw/Edge_Of_Tomorrow_(2014)_720p_X_264_AC3_[English_+_Hindi_]_Org_(1).mkv.html
http://www.heroupload.com/d43ab0c271e4275d/Edge_Of_Tomorrow_(2014)_720p_X_264_AC3_[English_+_Hindi_]_Org_(1).mkv