Complete name : 2012 (2009) 720p Bluray x264 AAC Dual Audio [English 5.1 + Hindi 5.1] Esubs.mkv 
Format : Matroska 
Format version : Version 4 / Version 2 
File size : 1.46 GiB 
Duration : 2 h 37 min 
Overall bit rate : 1 323 kb/s 
Encoded date : UTC 2017-01-05 09:12:28 
Writing application : mkvmerge v9.2.0 ('Photograph') 32bit 
Writing library : libebml v1.3.3 + libmatroska v1.4.4 

Video

ID : 1 
Format : AVC 
Format/Info : Advanced Video Codec 
Format profile : [email protected] 
Format settings, CABAC : Yes 
Format settings, ReFrames : 8 frames 
Codec ID : V_MPEG4/ISO/AVC 
Duration : 2 h 37 min 
Bit rate : 1 021 kb/s 
Width : 1 280 pixels 
Height : 528 pixels 
Display aspect ratio : 2.40:1 
Original display aspect ratio : 2.40:1 
Frame rate mode : Constant 
Frame rate : 23.976 (24000/1001) FPS 
Color space : YUV 
Chroma subsampling : 4:2:0 
Bit depth : 8 bits 
Scan type : Progressive 
Bits/(Pixel*Frame) : 0.063 
Stream size : 1.12 GiB (77%) 
Writing library : x264 core 148 r2744 b97ae06 
Default : Yes 
Forced : No 

Audio #1

ID : 2 
Format : AAC 
Format/Info : Advanced Audio Codec 
Format profile : LC 
Codec ID : A_AAC 
Duration : 2 h 37 min 
Bit rate : 128 kb/s 
Channel(s) : 6 channels 
Channel positions : Front: L C R, Side: L R, LFE 
Sampling rate : 48.0 kHz 
Frame rate : 46.875 FPS (1024 spf) 
Compression mode : Lossy 
Stream size : 144 MiB (10%) 
Title : English AAC 
Language : English 
Default : Yes 
Forced : No 

Audio #2 

ID : 3 
Format : AAC 
Format/Info : Advanced Audio Codec 
Format profile : LC 
Codec ID : A_AAC 
Duration : 2 h 35 min 
Bit rate : 160 kb/s 
Channel(s) : 6 channels 
Channel positions : Front: L C R, Side: L R, LFE 
Sampling rate : 48.0 kHz 
Frame rate : 46.875 FPS (1024 spf) 
Compression mode : Lossy 
Stream size : 178 MiB (12%) 
Title : Hindi AAC 
Default : No 
Forced : No 

Text

ID : 4 
Format : PGS 
Muxing mode : zlib 
Codec ID : S_HDMV/PGS 
Codec ID/Info : Picture based subtitle format used on BDs/HD-DVDs 
Duration : 2 h 26 min 
Bit rate : 15.8 kb/s 
Count of elements : 3797 
Stream size : 16.5 MiB (1%) 
Title : [PGS] English Esubs 
Default : Yes 
Forced : No










http://rg.to/file/751bfe6221b817aecba071b797f8b5b6/2012_(2009)_720p_Bluray_x264_AAC_Dual_Audio_[English_5.1___Hindi_5.1]_Esubs.mkv.html
http://www.arabloads.net/0xr7scf5c1tc/2012_(2009)_720p_Bluray_x264_AAC_Dual_Audio_[English_5.1_+_Hindi_5.1]_Esubs.mkv.html
http://www.heroupload.com/6733141a6346d9df/2012_(2009)_720p_Bluray_x264_AAC_Dual_Audio_[English_5.1_+_Hindi_5.1]_Esubs.mkv